#TITLE:Nonono,Yes;
#SUBTITLE:;
#ARTIST:Turtles;
#TITLETRANSLIT:;
#SUBTITLETRANSLIT:;
#ARTISTTRANSLIT:;
#CREDIT:;
#BANNER:Nonono,Yes_logo.jpg;
#BACKGROUND:Nonono,Yes_bg.jpg;
#LYRICSPATH:;
#CDTITLE:Lan.png;
#MUSIC:Nonono,Yes.mp3;
#OFFSET:-0.040;
#SAMPLESTART:100.000;
#SAMPLELENGTH:12.000;
#SELECTABLE:YES;
#BPMS:0.000=128.010;
#STOPS:;
#BGCHANGES:;
// cache tags:
#FIRSTBEAT:2.500;
#LASTBEAT:257.500;
#SONGFILENAME:Songs/Super Dancer Online/Nonono,Yes/Nonono,Yes.sm;
#HASMUSIC:1;
#HASBANNER:1;
#MUSICLENGTH:123.366;
// end cache tags

//---------------dance-single - sky----------------
#NOTES:
     dance-single:
     sky:
     Hard:
     9:
     0.857,0.861,1.000,0.000,0.474,604.000,136.000,0.000,0.000,0.000:

0000
0000
0000
0000
0000
0000
0000
0000
0000
0000
0001
0000
0010
0100
1000
0000
,
1100
0000
0001
0010
1000
0000
0010
0001
1100
0010
0001
0010
1000
0000
0100
0010
,
1001
0000
1000
0100
0001
0000
0100
1000
0011
0000
0100
0010
0001
0010
0100
1000
,
0011
0000
1000
0001
0010
0000
0100
0001
1100
0010
0001
0010
0100
0000
1000
0001
,
1010
0000
0100
0001
0100
0000
1000
0010
0101
0000
0100
0001
1010
0001
1000
0010
,
1100
0000
0001
0010
1000
0000
0001
0010
1100
0010
0001
0100
1000
0000
0010
0100
,
1001
0000
0100
1000
0001
0000
1000
0100
0011
0000
1000
0100
0001
1000
0100
1000
,
0011
0000
0100
1000
0010
0000
0001
0000
0110
1000
0001
0010
0100
0000
0001
0000
,
0110
1010
0000
0101
0000
0000
0100
0000
,
0010
0000
0010
0100
0010
0100
0010
0100
,
1010
0000
1010
0101
0000
0101
0101
0101
,
0010
0000
0010
0100
0010
0100
0010
0100
,
0101
0000
0101
1010
0000
1010
1010
1010
,
0100
0000
0100
0001
0100
0001
0100
0001
,
1010
0000
1010
1001
0000
1001
1001
1001
,
0100
0000
0100
1000
0100
1000
0100
0100
,
0101
0000
0101
1001
0000
1001
1001
1001
,
0100
0010
1001
0010
1000
0010
1001
0010
,
0100
0010
1001
0010
0100
0010
1001
0010
,
1000
0100
1001
0010
1000
0100
1001
0010
,
0100
0010
1001
0100
1000
0010
1001
0100
,
0011
0100
1001
0010
0100
0010
1001
0100
,
0010
0100
1001
0100
0010
0100
1001
0100
,
0001
0010
1001
0100
0001
0010
1001
0100
,
0010
0000
0001
0000
1001
0000
0100
0000
0010
0000
1000
0000
1001
0010
0100
0000
,
1001
0000
0001
0010
1000
0000
0100
0010
1001
0100
0010
0100
1000
0000
0100
0010
,
1001
0000
1000
0100
0001
0000
0100
1000
0011
0000
0100
0010
0001
0010
0100
1000
,
0011
0000
1000
0100
0010
0000
0001
0010
1100
0010
0001
0010
0100
0000
1000
0001
,
1010
0000
0100
0001
1000
0000
0100
0001
1100
0000
0010
0001
1100
0001
0010
0100
,
1001
0000
0001
0010
1000
0000
0001
0010
1100
0010
0001
0010
1000
0000
0100
0010
,
1001
0000
0100
0010
0001
0000
0010
0100
1001
0000
1000
0100
0001
1000
0010
1000
,
0011
0000
0100
1000
0001
0000
0100
0000
0011
0100
0010
0100
1000
0000
0001
0000
,
1100
0000
0101
0000
0000
0000
1001
0000
0000
0000
0001
0000
0010
0100
1000
0000
,
0001
0000
0100
0000
0001
0000
1000
0000
0100
0010
0001
0000
0100
0000
0001
0000
,
1000
0000
0010
0000
0100
0000
0010
0000
1000
0000
0100
0000
1000
0100
0001
0000
,
0010
0000
0001
0000
0100
0000
0010
0000
1000
0100
0010
0000
1000
0000
0100
0000
,
1000
0000
0010
0100
1000
0000
0001
0010
1000
0000
0100
0000
0010
0010
0000
0001
,
0001
0000
0010
0000
1000
0000
0001
0000
0010
0100
1000
0000
0001
0000
0100
0000
,
0001
0000
1000
0000
0010
0000
0100
0000
0010
0000
1000
0000
0001
0010
1000
0000
,
0100
0000
0001
0000
0010
0000
0001
0000
0010
0100
1000
0000
0010
0000
0100
0000
,
0001
0000
0100
0010
0001
0000
1000
0100
0001
0000
0010
0000
0100
0010
1000
0100
,
0001
0010
0100
0010
0100
0010
0100
0010
,
1010
0001
1010
0101
0000
0101
0101
0101
,
1000
0100
1000
0010
1000
0010
0010
1000
,
0101
1000
0101
1010
0000
1010
1010
1010
,
0100
0001
0010
0100
0010
0100
0010
0100
,
1010
0001
1010
1001
0000
1001
1001
1001
,
0010
1000
0010
0100
0010
0100
0010
0100
,
0101
1000
0101
1001
0000
1001
1001
1001
,
0100
0010
1001
0010
1000
0010
1001
0010
,
0100
0010
1001
0010
0100
0010
1001
0010
,
1000
0100
1001
0010
1000
0100
1001
0010
,
0100
0010
1001
0100
1000
0010
1001
0100
,
0011
0100
1001
0010
0100
0010
1001
0100
,
0010
0100
1001
0100
0010
0100
1001
0100
,
0001
0010
1001
0100
0001
0010
1001
0100
,
0010
0000
0001
0000
1001
0000
0100
0000
0010
0000
1000
0000
1001
0010
0100
0000
,
1001
0000
0010
0100
1000
0000
0001
0010
1100
0001
0010
0100
0001
0000
0100
0010
,
1001
0000
1000
0100
0001
0000
0010
0100
1001
0000
0010
0100
0001
0010
0100
0010
,
1001
0000
0100
0010
0001
0000
0010
0100
1001
0010
0001
0010
0100
0000
1000
0100
,
1001
0000
0100
0010
1000
0000
0010
0001
1100
0000
0010
0001
1010
0100
0010
0001
,
1100
0000
0001
0100
1000
0000
0001
0100
1001
0100
0010
0001
1000
0000
0100
0010
,
1001
0000
0100
1000
0001
0000
1000
0100
1001
0000
0010
0100
0001
1000
0100
1000
,
0011
0000
1000
0100
0001
0000
0100
0000
1001
0010
0100
1000
0001
0000
1000
0000
,
0011
1010
0000
1001
0000
0000
0000
0000
;
